ElaKiri Community
Downloads
(#5981)
Old
ROCCO-X's Avatar
ROCCO-X ROCCO-X is offline
Senior Member
ROCCO-X is a glorious beacon of lightROCCO-X is a glorious beacon of lightROCCO-X is a glorious beacon of lightROCCO-X is a glorious beacon of lightROCCO-X is a glorious beacon of lightROCCO-X is a glorious beacon of lightROCCO-X is a glorious beacon of lightROCCO-X is a glorious beacon of lightROCCO-X is a glorious beacon of lightROCCO-X is a glorious beacon of lightROCCO-X is a glorious beacon of light
 
Posts: 5,182
Join Date: May 2017
Location: ඉන්න හිතෙන රටක
02-10-2019, 07:35 PM

Quote:
Originally Posted by rock pora View Post
ane machan x264n diyan ah
Ado ubawa goda kalekin dakke.
Reply With Quote
(#5982)
Old
slsaico's Avatar
slsaico slsaico is offline
Senior Member
slsaico is a name known to allslsaico is a name known to allslsaico is a name known to allslsaico is a name known to allslsaico is a name known to allslsaico is a name known to allslsaico is a name known to allslsaico is a name known to allslsaico is a name known to allslsaico is a name known to allslsaico is a name known to all
 
Posts: 4,386
Join Date: Jul 2008
Location: ඇල්ල
Bimba Devi Alias Yashodhara - 02-12-2019, 12:54 AM

බිම්බා දේවී හෙවත් යශෝධරා
DVDrip


https://openload.co/f/wmwgCL_sJBM/ 1,014.89 MB

https://openload.co/f/92POv6gtwgY/ 1.44 GB

info
Stream size : 1.24 GiB (86%)
Writing library : x264 core 132
Duration : 2 h 27 min
Bit rate : 1 200 kb/s
Width : 1 280 pixels
Height : 720 pixels
Audio
ID : 2
Format : AAC LC

Last edited by slsaico; 02-12-2019 at 01:45 AM.
Reply With Quote
(#5983)
Old
NK123's Avatar
NK123 NK123 is online now
Senior Member
NK123 has much to be proud ofNK123 has much to be proud ofNK123 has much to be proud ofNK123 has much to be proud ofNK123 has much to be proud ofNK123 has much to be proud ofNK123 has much to be proud ofNK123 has much to be proud ofNK123 has much to be proud ofNK123 has much to be proud ofNK123 has much to be proud of
 
Posts: 22,675
Join Date: Jul 2015
Location: Colombo
02-12-2019, 12:57 AM

Quote:
Originally Posted by slsaico View Post
බිම්බා දේවී හෙවත් යශෝධරා
DVDrip


https://openload.co/f/wmwgCL_sJBM/

info
Stream size : 1.24 GiB (86%)
Writing library : x264 core 132
Duration : 2 h 27 min
Bit rate : 1 200 kb/s
Width : 1 280 pixels
Height : 720 pixels
Audio
ID : 2
Format : AAC LC
+22 from NK123
Reply With Quote
(#5984)
Old
slsaico's Avatar
slsaico slsaico is offline
Senior Member
slsaico is a name known to allslsaico is a name known to allslsaico is a name known to allslsaico is a name known to allslsaico is a name known to allslsaico is a name known to allslsaico is a name known to allslsaico is a name known to allslsaico is a name known to allslsaico is a name known to allslsaico is a name known to all
 
Posts: 4,386
Join Date: Jul 2008
Location: ඇල්ල
02-12-2019, 12:58 AM

Quote:
Originally Posted by NK123 View Post
Reply With Quote
(#5985)
Old
KeBa's Avatar
KeBa KeBa is offline
Senior Member
KeBa will become famous soon enoughKeBa will become famous soon enough
 
Posts: 3,349
Join Date: Mar 2008
Location: 1234
Send a message via Skype™ to KeBa
Up 02-12-2019, 06:39 AM

Quote:
Originally Posted by slsaico View Post
බිම්බා දේවී හෙවත් යශෝධරා
DVDrip


https://openload.co/f/wmwgCL_sJBM/ 1,014.89 MB

https://openload.co/f/92POv6gtwgY/ 1.44 GB

info
Stream size : 1.24 GiB (86%)
Writing library : x264 core 132
Duration : 2 h 27 min
Bit rate : 1 200 kb/s
Width : 1 280 pixels
Height : 720 pixels
Audio
ID : 2
Format : AAC LC

Thanks
Reply With Quote
(#5986)
Old
inranasingha's Avatar
inranasingha inranasingha is offline
Senior Member
inranasingha is a glorious beacon of lightinranasingha is a glorious beacon of lightinranasingha is a glorious beacon of lightinranasingha is a glorious beacon of lightinranasingha is a glorious beacon of lightinranasingha is a glorious beacon of lightinranasingha is a glorious beacon of lightinranasingha is a glorious beacon of lightinranasingha is a glorious beacon of lightinranasingha is a glorious beacon of lightinranasingha is a glorious beacon of light
 
Posts: 5,471
Join Date: Jan 2008
Location: රජයේ රෝහල
02-12-2019, 07:44 AM

Quote:
Originally Posted by slsaico View Post
බිම්බා දේවී හෙවත් යශෝධරා
DVDrip


https://openload.co/f/wmwgCL_sJBM/ 1,014.89 MB

https://openload.co/f/92POv6gtwgY/ 1.44 GB

info
Stream size : 1.24 GiB (86%)
Writing library : x264 core 132
Duration : 2 h 27 min
Bit rate : 1 200 kb/s
Width : 1 280 pixels
Height : 720 pixels
Audio
ID : 2
Format : AAC LC
patta +++
Reply With Quote
(#5987)
Old
hulk24's Avatar
hulk24 hulk24 is offline
Senior Member
hulk24 is just really nicehulk24 is just really nicehulk24 is just really nicehulk24 is just really nicehulk24 is just really nicehulk24 is just really nicehulk24 is just really nicehulk24 is just really nice
 
Posts: 1,374
Join Date: Oct 2010
check 02-12-2019, 04:10 PM

Quote:
Originally Posted by cscuser View Post

whats the name of this actress....????
Reply With Quote
(#5988)
Old
Fernando100's Avatar
Fernando100 Fernando100 is offline
Senior Member
Fernando100 is just really niceFernando100 is just really niceFernando100 is just really niceFernando100 is just really niceFernando100 is just really niceFernando100 is just really niceFernando100 is just really nice
 
Posts: 572
Join Date: Feb 2015
02-12-2019, 05:01 PM

bump
Reply With Quote
(#5989)
Old
HKavinda's Avatar
HKavinda HKavinda is offline
Senior Member
HKavinda has a reputation beyond reputeHKavinda has a reputation beyond reputeHKavinda has a reputation beyond reputeHKavinda has a reputation beyond reputeHKavinda has a reputation beyond reputeHKavinda has a reputation beyond reputeHKavinda has a reputation beyond reputeHKavinda has a reputation beyond reputeHKavinda has a reputation beyond reputeHKavinda has a reputation beyond reputeHKavinda has a reputation beyond repute
 
Posts: 38,758
Join Date: Dec 2013
Location: 🅸🅽🆃🅴🆁🅽🅴🆃
02-12-2019, 06:44 PM

Quote:
Originally Posted by slsaico View Post
බිම්බා දේවී හෙවත් යශෝධරා
DVDrip


https://openload.co/f/wmwgCL_sJBM/ 1,014.89 MB

https://openload.co/f/92POv6gtwgY/ 1.44 GB

info
Stream size : 1.24 GiB (86%)
Writing library : x264 core 132
Duration : 2 h 27 min
Bit rate : 1 200 kb/s
Width : 1 280 pixels
Height : 720 pixels
Audio
ID : 2
Format : AAC LC

R E P +
Reply With Quote
(#5990)
Old
SLCRI's Avatar
SLCRI SLCRI is offline
Senior Member
SLCRI is a name known to allSLCRI is a name known to allSLCRI is a name known to allSLCRI is a name known to allSLCRI is a name known to allSLCRI is a name known to allSLCRI is a name known to allSLCRI is a name known to allSLCRI is a name known to allSLCRI is a name known to allSLCRI is a name known to all
 
Posts: 7,994
Join Date: Feb 2011
02-12-2019, 06:51 PM

Quote:
Originally Posted by slsaico View Post
බිම්බා දේවී හෙවත් යශෝධරා
DVDrip

Thank u. +rep
Reply With Quote
Reply

Bookmarks

Tags
!!!! police bump, !!!upulpdn, ඔබට සතුටුද දැන් !, බලමු අපේ දේ, මෑ මල විකමු, රනිල් පොන්න පකයා, වැදගත් ත්‍රෙඩ්, සි‍ංහල චිත්‍රපට, සුබ ආරංචි, 045, 162, aluth ewa, ape de agayamu, bump, jaya jaya, movie, movies, nb dia, patta, sinhala, sinhala films, sinhala movies, sinhala-moviez.blogspot, siyarata de sirisapade, ~films~

Thread Tools

Posting Rules
You may not post new threads
You may not post replies
You may not post attachments
You may not edit your posts

BB code is On
Smilies are On
[IMG] code is On
HTML code is Off

Forum Jump



Copyright © 2006 - 2011 ElaKiri™ Beta2.Evo vBulletin, vBa iBproArcade Subdreamer I-Magic MKv

Page generated in 0.05087 seconds with 12 queries