ElaKiri Community
Downloads
Go Back   ElaKiri Community > Entertainment > Movies TV and Radio
Reload this Page DOWNLOADS MKV ,300MB,400MB, 720P ,1080P,BRRip MOVIES(DAILY UPDATE)
Reply
 
Thread Tools
(#531)
Old
LKROCKS LKROCKS is offline
Banned
LKROCKS is on a distinguished road
 
Posts: 278
Join Date: Jun 2010
02-17-2012, 01:49 PM

Underworld Awakening 2012 R5 DVDRip XVID AC3-5 1 HQ Hive-CM8



Quote:
Underworld.Awakening.2012.R5.DVDRip.XVID.AC3-5.1.HQ.Hive-CM8



Thx Hive

CM8 Doing It Right The First Time


Sources:
Video: Russian DVD-5 Drygoi.mir.Probuzjdenie.2012.DVD-5
Audio: SIC`s full LINE and the russian 5.1 audio track
thx guys

Video Encode:
DVD had great quality so i could make a very nice video. Added brightness, sharpness, rgb and denoise.
Also slightly adjusted contrast to let you see more in the darkness.

Audio Encode:
Took sic´s full line, cleaned all kind of noise issues till it got very clear. Fixed around 10 oos spots.
Noticed that the first 2 mins is a different line than the rest of the movie, also loudness wasnt constant
for both lines, fixed levels. Both lines sounded totally different, fixed that as good as possible.
Took the russian audiotrack and cleaned out all kind of russian voices - were a lot in this movie.
Entered the line back into the russian track and "bang" sounds retailish now.
And all the nice sourround effects are now inside, which gives the movie the extra kick.
Also added full subs in /subs dir for the ones who need it.

got very very nice, check sample
will do perfectly till the bluray comes around.
enjoy

Video: 720x304 @bitrate 1800 2pass
Audio: English AC3 5.1 @448
Subs: English for foreign parts only were already hardcoded
full subs in /srt subs
Sample: Yes, included


Code:
http://www.imdb.com/title/tt1496025/

General
Complete name : Underworld.Awakening.2012.R5.DVDRip.XVID.AC3-5.1.HQ.Hive-CM8.avi
Format : AVI
Format/Info : Audio Video Interleave
File size : 1.34 GiB
Duration : 1h 25mn
Overall bit rate : 2 255 Kbps
Writing application : Nandub v1.0rc2
Writing library : Nandub build 1853/release

Video
ID : 0
Format : MPEG-4 Visual
Format profile : Advanced [email protected]
Format settings, BVOP : 2
Format settings, QPel : Yes
Format settings, GMC : No warppoints
Format settings, Matrix : Default (H.263)
Muxing mode : Packed bitstream
Codec ID : XVID
Codec ID/Hint : XviD
Duration : 1h 25mn
Bit rate : 1 798 Kbps
Width : 720 pixels
Height : 304 pixels
Display aspect ratio : 2.35:1
Frame rate : 25.000 fps
Color space : YUV
Chroma subsampling : 4:2:0
Bit depth : 8 bits
Scan type : Progressive
Compression mode : Lossy
Bits/(Pixel*Frame) : 0.329
Stream size : 1.07 GiB (80%)
Writing library : XviD 1.2.1 (UTC 2008-12-04)

Audio
ID : 1
Format : AC-3
Format/Info : Audio Coding 3
Mode extension : CM (complete main)
Codec ID : 2000
Duration : 1h 25mn
Bit rate mode : Constant
Bit rate : 448 Kbps
Channel(s) : 6 channels
Channel positions : Front: L C R, Side: L R, LFE
Sampling rate : 48.0 KHz
Bit depth : 16 bits
Compression mode : Lossy
Stream size : 273 MiB (20%)
Alignment : Split accross interleaves
Interleave, duration : 40 ms (1.00 video frame)
Interleave, preload duration : 500 ms


Plot:
When human forces discover the existence of the Vampire and Lycan clans, a war to eradicate
both species commences. The vampire warrioress Selene leads the battle against humankind.


Cast:
Kate Beckinsale ... Selene
Stephen Rea ... Dr. Jacob Lane
Michael Ealy ... Detective Sebastian
India Eisley ... Eve





Downloads


Uploaded.to
Code:
http://ul.to/02xrqcy2/Underworld.Awakening.2012.R5.DVDRip.XVID.AC3-5.1.HQ.Hive-CM8.rar
Filefactory
Code:
http://www.filefactory.com/file/c3a26ba/n/Underworld.Awakening.2012.R5.DVDRip.XVID.AC3-5.1.HQ.Hive-CM8.rar
Reply With Quote
Reply

Bookmarks

Tags
400mb movies

Thread Tools

Posting Rules
You may not post new threads
You may not post replies
You may not post attachments
You may not edit your posts

BB code is On
Smilies are On
[IMG] code is On
HTML code is Off

Forum Jump



Copyright © 2006 - 2011 ElaKiri™ Beta2.Evo vBulletin, vBa iBproArcade Subdreamer I-Magic MKv

Page generated in 0.03588 seconds with 11 queries